<?xml version="1.0" standalone="no"?>
<!DOCTYPE svg PUBLIC "-//W3C//DTD SVG 1.1//EN" "http://www.w3.org/Graphics/SVG/1.1/DTD/svg11.dtd" >
<svg xmlns="http://www.w3.org/2000/svg">
<metadata>Generated by IcoMoon</metadata>
<defs>
<font id="icomoon" horiz-adv-x="1024">
<font-face units-per-em="1024" ascent="960" descent="-64" />
<missing-glyph horiz-adv-x="1024" />
<glyph unicode="&#x20;" horiz-adv-x="512" d="" />
<glyph unicode="&#xe900;" glyph-name="close" d="M909.568 928.219c22.85 22.851 59.86 22.851 82.71 0 22.857-22.851 22.857-59.863 0-82.714l-397.496-397.5 397.496-397.499c22.857-22.85 22.857-59.867 0-82.717-22.85-22.85-59.86-22.85-82.71 0l-397.501 397.502-397.5-397.502c-22.851-22.85-59.863-22.85-82.715 0s-22.851 59.867 0 82.717l397.5 397.499-397.5 397.5c-22.851 22.851-22.851 59.863 0 82.714s59.863 22.851 82.715 0l397.5-397.5 397.501 397.5z" />
<glyph unicode="&#xe901;" glyph-name="flag" d="M128 800c0 17.673 14.327 32 32 32h278.176c20.637 0 41.139-3.327 60.717-9.853l68.883-22.961c19.578-6.526 40.077-9.853 60.714-9.853h171.51c53.021 0 96-42.981 96-96v-319.999c0-53.021-42.979-96-96-96h-171.51c-20.637 0-41.136 3.325-60.714 9.853l-68.883 22.96c-19.578 6.525-40.080 9.853-60.717 9.853h-278.176c-17.673 0-32 14.326-32 32v448zM170.667 874.668c23.564 0 42.667-19.102 42.667-42.667v-768.001c0-23.562-19.103-42.666-42.667-42.666s-42.667 19.104-42.667 42.666v768.001c0 23.564 19.102 42.667 42.667 42.667z" />
<glyph unicode="&#xe902;" d="M938.646 447.997c0-235.642-191.027-426.666-426.669-426.666-235.64 0-426.665 191.024-426.665 426.666s191.025 426.667 426.665 426.667c235.642 0 426.669-191.025 426.669-426.667z" />
<glyph unicode="&#xe903;" d="M353.811 350.166c-16.662-16.662-16.662-43.677 0-60.339s43.677-16.662 60.339 0l97.827 97.83 97.83-97.83c16.662-16.662 43.68-16.662 60.342 0s16.662 43.677 0 60.339l-97.83 97.83 97.83 97.83c16.662 16.662 16.662 43.677 0 60.339s-43.677 16.662-60.339 0l-97.834-97.83-97.827 97.83c-16.662 16.662-43.68 16.662-60.342 0s-16.662-43.677 0-60.339l97.83-97.83-97.827-97.83z" />
<glyph unicode="&#xe904;" glyph-name="plus" horiz-adv-x="1170" d="M546.094 131.048v351.095h-351.094c-21.544 0-39 17.455-39 39s17.456 39 39 39h351.094v351.095c0 21.544 17.457 39 39 39 21.548 0 39-17.456 39-39v-351.095h351.095c21.548 0 39-17.455 39-39s-17.452-39-39-39h-351.095v-351.095c0-21.543-17.452-39-39-39-21.543 0-39 17.457-39 39z" />
<glyph unicode="&#xe905;" glyph-name="calendar" horiz-adv-x="1075" d="M960 512h-844.8v-360.95c0-29.307 0.012-49.004 1.25-64.148 1.201-14.694 3.388-21.714 5.75-26.353 6.135-12.037 15.912-21.816 27.95-27.95 4.636-2.36 11.656-4.547 26.35-5.75 15.149-1.239 34.842-1.249 64.15-1.249h593.9c29.307 0 49.004 0.010 64.148 1.249 14.694 1.203 21.714 3.389 26.353 5.75 12.037 6.134 21.816 15.913 27.95 27.95 2.36 4.639 4.547 11.658 5.75 26.353 1.239 15.145 1.249 34.842 1.249 64.148v360.95zM960 642.55c0 29.308-0.010 49.001-1.249 64.15-1.203 14.694-3.389 21.714-5.75 26.35-6.134 12.038-15.913 21.815-27.95 27.95-4.639 2.362-11.658 4.549-26.353 5.75-15.145 1.238-34.842 1.25-64.148 1.25h-593.9c-29.308 0-49.001-0.012-64.15-1.25-14.694-1.202-21.714-3.388-26.35-5.75-12.038-6.135-21.815-15.912-27.95-27.95-2.362-4.636-4.549-11.656-5.75-26.35-1.238-15.149-1.25-34.842-1.25-64.15v-53.75h844.8v53.75zM1036.8 151.050c0-28.042 0.051-51.4-1.5-70.4-1.587-19.441-5.059-37.688-13.85-54.948-13.501-26.496-35.057-48.051-61.548-61.553-17.265-8.791-35.512-12.262-54.953-13.85-19-1.551-42.358-1.5-70.4-1.5h-593.9c-28.041 0-51.398-0.051-70.4 1.5-19.442 1.587-37.688 5.059-54.95 13.85-26.493 13.501-48.051 35.057-61.55 61.553-8.792 17.26-12.261 35.507-13.85 54.948-1.552 19-1.5 42.358-1.5 70.4v491.5c0 28.041-0.052 51.399 1.5 70.4 1.589 19.443 5.058 37.688 13.85 54.95 13.499 26.493 35.057 48.051 61.55 61.55 17.262 8.792 35.508 12.261 54.95 13.85 19.002 1.553 42.359 1.5 70.4 1.5h2.55v64c0 21.208 17.192 38.4 38.4 38.4s38.4-17.192 38.4-38.4v-64h435.2v64c0 21.208 17.193 38.4 38.4 38.4s38.4-17.192 38.4-38.4v-64h2.55c28.042 0 51.4 0.053 70.4-1.5 19.441-1.589 37.688-5.058 54.953-13.85 26.491-13.499 48.046-35.057 61.548-61.55 8.791-17.262 12.262-35.508 13.85-54.95 1.551-19.001 1.5-42.359 1.5-70.4v-491.5z" />
<glyph unicode="&#xe906;" glyph-name="trash" horiz-adv-x="964" d="M734.822 701h-505.94v-463.824c0-42.966 0.028-72.306 1.882-94.997 1.808-22.118 5.128-33.647 9.294-41.827 9.814-19.263 25.446-34.949 44.706-44.761 8.181-4.168 19.751-7.487 41.882-9.294 22.693-1.855 52.038-1.885 95-1.885h120.471c42.939 0 72.252 0.030 94.943 1.885 22.13 1.807 33.702 5.126 41.882 9.294 19.263 9.812 34.949 25.498 44.761 44.761 4.162 8.18 7.433 19.727 9.24 41.827 1.855 22.691 1.879 52.031 1.879 94.997v463.824zM333.294 197v351.412c0.011 26.605 21.57 48.177 48.177 48.177s48.166-21.572 48.176-48.177v-351.412c-0.010-26.606-21.569-48.176-48.176-48.176s-48.166 21.57-48.177 48.176zM534.059 197v351.412c0.011 26.598 21.579 48.166 48.177 48.177 26.605 0 48.223-21.572 48.235-48.177v-351.412c-0.012-26.606-21.63-48.176-48.235-48.176-26.598 0.012-48.166 21.576-48.177 48.176zM447.059 851.589c-45.743 0-55.379-0.835-62.53-3.647-8.128-3.197-15.337-8.361-20.941-15.059-3.916-4.683-7.122-11.271-15.529-35.53h267.588c-8.403 24.254-11.613 30.847-15.529 35.53-5.604 6.693-12.817 11.863-20.941 15.059-7.148 2.807-16.785 3.647-62.471 3.647h-69.646zM831.235 237.176c0-41.37 0.012-75.294-2.235-102.822-2.295-28.088-7.174-53.742-19.414-77.764-19.052-37.4-49.483-67.825-86.883-86.883-24.028-12.246-49.676-17.179-77.764-19.474-27.522-2.247-61.457-2.174-102.822-2.174h-120.471c-41.359 0-75.3-0.072-102.823 2.174-28.082 2.295-53.74 7.234-77.765 19.474-37.402 19.058-67.825 49.477-86.882 86.883-12.245 24.028-17.175 49.67-19.47 77.764-2.249 27.528-2.235 61.452-2.235 102.822v463.824h-52.176c-26.614 0-48.177 21.562-48.177 48.176s21.563 48.176 48.177 48.176h166.058l2.588 7.824c11.865 35.593 21.217 66.224 40.706 89.53 15.953 19.074 36.448 33.837 59.588 42.941 28.273 11.119 60.303 10.294 97.824 10.294h69.646c37.506 0 69.501 0.821 97.767-10.294 23.142-9.101 43.634-23.868 59.585-42.941 19.492-23.304 28.847-53.939 40.707-89.53l2.59-7.824h166.057c26.612 0 48.236-21.562 48.236-48.176s-21.624-48.176-48.236-48.176h-52.176v-463.824z" />
<glyph unicode="&#xe907;" d="M938.646 448c0-235.642-191.027-426.669-426.669-426.669-235.64 0-426.665 191.027-426.665 426.669s191.025 426.666 426.665 426.666c235.642 0 426.669-191.025 426.669-426.666z" />
<glyph unicode="&#xe908;" d="M511.978 704c23.565 0 42.669-19.102 42.669-42.667v-195.66l94.17-94.17c16.662-16.662 16.662-43.677 0-60.339s-43.677-16.662-60.339 0l-94.17 94.17c-16.003 16.003-24.995 37.706-24.995 60.339v195.66c0 23.564 19.104 42.667 42.666 42.667z" />
<glyph unicode="&#xe909;" glyph-name="car" horiz-adv-x="1365" d="M1125.060 737.45c-16.384 21.845-49.152 32.768-76.459 32.768h-131.072v49.152c0 54.613-43.691 103.765-103.765 103.765h-682.665c-54.613 0-103.766-43.69-103.766-103.765v-567.978c0-54.613 43.691-103.765 103.766-103.765h43.691c10.922-98.304 92.842-174.763 191.146-174.763s185.684 76.459 191.146 174.763h278.528c10.923-98.304 92.843-174.763 191.147-174.763s185.685 76.459 191.147 174.763h16.384c54.613 0 103.765 43.691 103.765 103.765v207.531c0 27.307-10.923 49.152-27.307 70.997l-185.685 207.53zM365.936 82.091c-43.691 0-81.92 38.229-81.92 81.92s38.229 81.92 81.92 81.92c43.691 0 81.919-38.229 81.919-81.92s-38.228-81.92-81.919-81.92zM1026.756 82.091c-43.691 0-81.92 38.229-81.92 81.92s38.229 81.92 81.92 81.92c43.691 0 81.92-38.229 81.92-81.92 5.461-43.691-32.768-81.92-81.92-81.92zM1190.596 458.923h-251.221c-10.923 0-16.384 5.461-16.384 16.384v169.301c0 10.923 5.461 16.384 16.384 16.384h98.304c5.461 0 10.923 0 10.923-5.461l152.917-169.301c10.923-10.923 0-27.307-10.923-27.307z" />
<glyph unicode="&#xe90a;" d="M938.646 448c0-235.642-191.027-426.666-426.669-426.666-235.64 0-426.665 191.024-426.665 426.666s191.025 426.667 426.665 426.667c235.642 0 426.669-191.025 426.669-426.667z" />
<glyph unicode="&#xe90b;" d="M826.038 736.814c19.408-21.093 36.717-44.147 51.6-68.829l-347.987-347.985c-33.325-33.325-87.354-33.325-120.678 0l-119.164 119.165c-16.662 16.662-16.662 43.677 0 60.339s43.679 16.662 60.341 0l119.162-119.165 353.83 353.831c0.934 0.934 1.901 1.815 2.896 2.644z" />
<glyph unicode="&#xe90c;" glyph-name="verification" d="M893.167 448c0 25.727-9.995 49.027-26.391 66.389-11.81 12.505-20.986 22.216-27.443 29.222-3.203 3.478-6.042 6.615-8.334 9.278-1.536 1.79-5.222 6.043-8.055 10.778-0.398 0.664-0.637 1.033-0.722 1.167l-0.057 0.056c-0.017 0.025-0.296 0.484-0.609 0.944-0.609 0.904-2.776 4.072-4.608 8.5-1.832 4.421-2.52 8.153-2.725 9.222-0.108 0.551-0.216 1.080-0.222 1.111-0.011 0.060 0 0.096 0 0.112 0.051-0.28-0.011-0.004-0.336 1.278-1.348 5.354-1.764 10.976-1.94 13.333-0.267 3.509-0.478 7.766-0.671 12.5-0.387 9.517-0.785 22.876-1.274 40.055-0.688 23.863-10.092 47.37-28.279 65.555-18.193 18.193-41.739 27.653-65.61 28.334-17.163 0.49-30.487 0.834-39.999 1.223-4.733 0.193-8.994 0.404-12.504 0.666-2.355 0.177-7.976 0.594-13.329 1.944-1.286 0.324-1.564 0.386-1.28 0.333-0.017 0.003-0.051-0.010-0.114 0-0.028 0.006-0.558 0.116-1.109 0.222-1.070 0.207-4.801 0.894-9.222 2.722-4.426 1.834-7.595 4-8.499 4.611-0.461 0.311-0.922 0.593-0.944 0.611l-0.057 0.055c-0.131 0.086-0.501 0.325-1.166 0.722-4.733 2.83-8.988 6.515-10.775 8.055-2.668 2.293-5.803 5.129-9.279 8.334-7.009 6.456-16.72 15.633-29.224 27.444-17.362 16.397-40.662 26.389-66.389 26.389s-49.027-9.993-66.389-26.389c-12.506-11.811-22.216-20.989-29.222-27.444-3.478-3.205-6.615-6.041-9.278-8.334-1.79-1.54-6.043-5.225-10.778-8.055-0.665-0.397-1.034-0.635-1.167-0.722l-0.056-0.055c-0.025-0.018-0.484-0.3-0.944-0.611-0.904-0.611-4.072-2.777-8.5-4.611-4.421-1.829-8.153-2.515-9.222-2.722-0.551-0.106-1.080-0.217-1.111-0.222-0.060-0.010-0.095 0.003-0.112 0 0.28 0.052 0.004-0.010-1.278-0.333-5.354-1.35-10.976-1.768-13.333-1.944-3.509-0.262-7.766-0.473-12.5-0.666-9.517-0.389-22.876-0.732-40.055-1.223-23.864-0.687-47.369-10.147-65.555-28.334s-27.646-41.692-28.334-65.555c-0.49-17.178-0.834-30.539-1.223-40.055-0.193-4.733-0.404-8.992-0.666-12.5-0.177-2.357-0.594-7.979-1.944-13.333-0.324-1.285-0.386-1.559-0.333-1.278-0.003-0.016 0.010-0.051 0-0.112-0.006-0.031-0.116-0.56-0.222-1.111-0.207-1.070-0.894-4.802-2.722-9.222-1.834-4.428-4-7.596-4.611-8.5-0.311-0.461-0.593-0.919-0.611-0.944-0.036-0.052-0.103-0.044-0.111-0.056 0.166 0.241 0.018-0.019-0.667-1.167-2.83-4.735-6.515-8.987-8.055-10.778-2.293-2.663-5.129-5.8-8.334-9.278-6.456-7.005-15.633-16.716-27.444-29.222-16.397-17.361-26.389-40.662-26.389-66.389s9.993-49.027 26.389-66.389c11.811-12.504 20.989-22.215 27.444-29.224 3.205-3.476 6.041-6.61 8.334-9.279 1.54-1.786 5.225-6.042 8.055-10.775 0.685-1.149 0.833-1.411 0.667-1.166 0.008-0.011 0.074-0.006 0.111-0.057 0.018-0.023 0.3-0.484 0.611-0.944 0.611-0.905 2.777-4.073 4.611-8.499 1.828-4.42 2.515-8.152 2.722-9.222 0.106-0.552 0.217-1.081 0.222-1.109 0.010-0.063-0.003-0.097 0-0.114-0.052 0.284 0.009 0.006 0.333-1.28 1.35-5.353 1.768-10.974 1.944-13.329 0.262-3.51 0.473-7.771 0.666-12.504 0.389-9.512 0.733-22.875 1.223-40.055 0.687-23.859 10.147-47.366 28.334-65.553s41.691-27.648 65.555-28.336c17.179-0.489 30.537-0.831 40.055-1.217 4.734-0.193 8.991-0.404 12.5-0.671 1.18-0.085 3.187-0.262 5.555-0.552l7.778-1.388 1.278-0.336c0.016 0 0.051 0.011 0.112 0 0.031-0.006 0.56-0.114 1.111-0.222 1.070-0.205 4.801-0.893 9.222-2.725 4.428-1.832 7.596-3.999 8.5-4.608 0.46-0.313 0.919-0.592 0.944-0.609l0.056-0.057c0.133-0.085 0.502-0.324 1.167-0.722 4.734-2.833 8.988-6.514 10.778-8.055 2.663-2.293 5.8-5.131 9.278-8.334 7.006-6.457 16.716-15.633 29.222-27.443 17.361-16.395 40.662-26.391 66.389-26.391s49.027 9.995 66.389 26.391c12.504 11.81 22.215 20.986 29.224 27.443 3.476 3.203 6.61 6.042 9.279 8.334 1.786 1.542 6.042 5.222 10.775 8.055l1.166 0.722 0.057 0.057c0.023 0.017 0.484 0.296 0.944 0.609 0.905 0.609 4.073 2.776 8.499 4.608 4.42 1.832 8.152 2.52 9.222 2.725 0.552 0.108 1.081 0.216 1.109 0.222 0.063 0.011 0.097 0 0.114 0-0.284-0.051-0.006 0.011 1.28 0.336 5.353 1.348 10.974 1.764 13.329 1.94 3.51 0.267 7.771 0.478 12.504 0.671 9.512 0.387 22.835 0.728 39.999 1.217 23.871 0.683 47.417 10.143 65.61 28.336 18.187 18.187 27.591 41.694 28.279 65.553 0.489 17.18 0.887 30.538 1.274 40.055 0.193 4.733 0.404 8.994 0.671 12.504 0.176 2.355 0.592 7.976 1.94 13.329 0.324 1.286 0.387 1.559 0.336 1.28 0 0.017-0.011 0.051 0 0.114 0.006 0.028 0.114 0.558 0.222 1.109 0.205 1.070 0.893 4.801 2.725 9.222 1.832 4.426 3.999 7.595 4.608 8.499 0.313 0.461 0.592 0.922 0.609 0.944l0.057 0.057c0.085 0.131 0.324 0.501 0.722 1.166l4.5 6.502c1.462 1.866 2.788 3.379 3.556 4.272 2.293 2.668 5.131 5.803 8.334 9.279 6.457 7.009 15.633 16.72 27.443 29.224 16.395 17.362 26.391 40.662 26.391 66.389zM666.67 619.333c16.088 19.309 44.8 21.924 64.108 5.833 19.285-16.087 21.897-44.752 5.831-64.056l-194.497-233.442c-6.874-8.249-13.858-16.612-20.333-23.171-6.815-6.901-16.081-15.002-28.944-20.11-17.337-6.878-36.5-7.72-54.389-2.441-13.282 3.92-23.307 11.127-30.722 17.385-7.031 5.939-14.7 13.648-22.278 21.225l-71.555 71.554c-17.773 17.773-17.773 46.615 0 64.389 17.774 17.764 46.619 17.77 64.389 0l71.5-71.555c5.065-5.063 8.876-8.55 11.722-11.275 2.587 2.97 6.078 6.77 10.667 12.277l194.503 233.388zM984.166 448c0-49.881-19.502-95.306-51.223-128.887-11.992-12.698-20.685-21.897-26.664-28.388-1.599-1.735-2.924-3.191-3.999-4.392-0.091-1.604-0.188-3.55-0.279-5.888-0.364-8.818-0.728-21.487-1.223-38.946-1.32-46.177-19.621-92.114-54.892-127.386-35.271-35.277-81.209-53.572-127.386-54.892-17.459-0.495-30.128-0.859-38.946-1.223-2.338-0.091-4.284-0.188-5.888-0.279-1.2-1.075-2.657-2.401-4.392-3.999-6.485-5.979-15.69-14.672-28.388-26.664-33.582-31.721-79.007-51.223-128.887-51.223s-95.304 19.502-128.889 51.223c-12.699 11.992-21.898 20.685-28.389 26.664-1.75 1.616-3.239 2.918-4.444 3.999-1.592 0.085-3.52 0.188-5.833 0.279-8.818 0.364-21.489 0.728-38.944 1.223-46.178 1.32-92.117 19.621-127.389 54.892s-53.572 81.209-54.889 127.386c-0.498 17.459-0.862 30.128-1.223 38.946-0.096 2.344-0.247 4.284-0.333 5.888-1.073 1.195-2.357 2.668-3.944 4.392-5.981 6.485-14.673 15.69-26.667 28.388-31.72 33.582-51.222 79.007-51.222 128.887s19.503 95.304 51.222 128.889c11.993 12.699 20.685 21.899 26.667 28.389 1.6 1.737 2.866 3.244 3.944 4.444 0.085 1.593 0.239 3.519 0.333 5.833 0.36 8.818 0.724 21.486 1.223 38.944 1.317 46.179 19.616 92.117 54.889 127.389s81.211 53.572 127.389 54.889c17.457 0.498 30.127 0.862 38.944 1.223 2.315 0.094 4.24 0.248 5.833 0.333 1.2 1.078 2.708 2.344 4.444 3.944 6.491 5.982 15.691 14.674 28.389 26.667 33.584 31.72 79.008 51.222 128.889 51.222s95.306-19.502 128.887-51.222c12.698-11.993 21.902-20.685 28.388-26.667 1.724-1.587 3.197-2.871 4.392-3.944 1.604-0.086 3.544-0.238 5.888-0.333 8.818-0.36 21.487-0.724 38.946-1.223 46.177-1.318 92.114-19.617 127.386-54.889s53.572-81.211 54.892-127.389c0.495-17.457 0.859-30.127 1.223-38.944 0.091-2.314 0.193-4.241 0.279-5.833 1.081-1.205 2.384-2.695 3.999-4.444 5.979-6.491 14.672-15.691 26.664-28.389 31.721-33.584 51.223-79.007 51.223-128.889z" />
<glyph unicode="&#xe90d;" glyph-name="edit" d="M0 162.353v517.42c0 29.283-0.057 54.487 1.632 75.158 1.741 21.307 5.609 42.502 16 62.895 15.497 30.412 40.221 55.131 70.632 70.631 20.388 10.388 41.593 14.259 62.895 16 20.678 1.689 45.916 1.631 75.211 1.631h204.789c29.766 0 53.895-24.129 53.895-53.895-0.009-29.757-24.135-53.895-53.895-53.895h-204.789c-31.073 0-51.15-0.015-66.421-1.263-14.637-1.196-20.072-3.221-22.737-4.579-10.141-5.167-18.359-13.438-23.526-23.579-1.358-2.665-3.383-8.096-4.579-22.737-1.247-15.265-1.316-35.317-1.316-66.369v-517.42c0-31.070 0.068-51.151 1.316-66.42 1.196-14.627 3.222-20.076 4.579-22.738 5.167-10.127 13.397-18.362 23.526-23.525 2.665-1.358 8.099-3.385 22.737-4.581 15.27-1.245 35.348-1.315 66.421-1.315h517.368c31.076 0 51.151 0.070 66.42 1.315 14.638 1.196 20.076 3.223 22.738 4.581 10.132 5.163 18.362 13.398 23.525 23.525 1.358 2.662 3.385 8.111 4.581 22.738 1.245 15.268 1.315 35.35 1.315 66.42v231.737c0 29.765 24.129 53.894 53.895 53.894s53.895-24.129 53.895-53.894v-231.737c0-29.281 0.054-54.488-1.633-75.156-1.741-21.305-5.61-42.507-15.996-62.895-15.5-30.424-40.216-55.183-70.634-70.688-20.388-10.386-41.591-14.201-62.895-15.947-20.679-1.687-45.913-1.682-75.21-1.682h-517.368c-29.294 0-54.533-0.005-75.211 1.682-21.301 1.746-42.507 5.562-62.895 15.947-30.418 15.506-55.132 40.265-70.632 70.688-10.386 20.388-14.259 41.591-16 62.895-1.687 20.669-1.632 45.875-1.632 75.156zM738.579 912.457c63.143 63.142 165.489 63.142 228.632 0s63.143-165.49 0-228.632l-369.788-369.84c-39.731-39.731-64.052-64.286-92.212-83.952-24.203-16.896-50.323-30.919-77.79-41.736-31.97-12.584-65.908-19.251-121-30.364l-26.263-5.266c-17.162-3.46-34.956 1.611-47.684 13.63-12.725 12.019-18.841 29.464-16.368 46.791l2.579 17.893c8.759 61.316 13.916 99.053 26.316 134.683 10.655 30.618 25.219 59.742 43.316 86.634 21.064 31.299 48.157 58.052 91.948 101.842l358.315 358.316zM456.474 477.931c-46.673-46.674-64.844-65.151-78.737-85.787-12.926-19.208-23.336-40.033-30.947-61.898-5.157-14.816-8.548-30.488-12.736-56.422 25.211 5.46 39.95 9.324 53.842 14.794 19.624 7.723 38.287 17.715 55.579 29.788 18.583 12.972 35.341 29.448 77.684 71.788l228.738 228.738-76.213 76.21-217.21-217.21zM890.999 836.246c-21.046 21.048-55.161 21.048-76.207 0l-64.895-64.895 76.207-76.21 64.895 64.895c21.051 21.048 21.051 55.163 0 76.21z" />
<glyph unicode="&#xe90e;" glyph-name="chevron-right" horiz-adv-x="585" d="M31.781 928.214c22.851 22.851 59.863 22.851 82.714 0l438.857-438.857c22.851-22.851 22.851-59.863 0-82.714l-438.857-438.855c-22.851-22.857-59.863-22.857-82.714 0-22.851 22.85-22.851 59.86 0 82.71l397.5 397.502-397.5 397.5c-22.851 22.851-22.851 59.863 0 82.714z" />
<glyph unicode="&#xe90f;" glyph-name="logout" d="M215.062 960.019h348.102c28.273 0 51.2-22.923 51.2-51.2s-22.927-51.2-51.2-51.2h-348.102c-29.516 0-48.594-0.065-63.1-1.25-13.91-1.137-19.068-3.060-21.6-4.35-9.632-4.909-17.492-12.718-22.4-22.35-1.29-2.532-3.214-7.699-4.35-21.6-1.185-14.507-1.2-33.581-1.2-63.1v-593.898c0-29.522 0.015-48.594 1.2-63.104 1.136-13.901 3.060-19.067 4.35-21.596 4.908-9.636 12.768-17.444 22.4-22.354 2.532-1.29 7.691-3.21 21.6-4.347 14.506-1.188 33.584-1.249 63.1-1.249h348.102c28.273 0 51.2-22.927 51.2-51.2 0-28.278-22.927-51.2-51.2-51.2h-348.102c-27.83 0-51.806-0.056-71.45 1.546-20.24 1.654-40.378 5.33-59.75 15.201-28.891 14.725-52.375 38.211-67.1 67.103-9.869 19.369-13.546 39.511-15.2 59.745-1.605 19.645-1.55 43.622-1.55 71.455v593.898c0 27.83-0.055 51.806 1.55 71.45 1.654 20.237 5.331 40.381 15.2 59.75 14.725 28.889 38.209 52.377 67.1 67.1 19.372 9.871 39.51 13.546 59.75 15.2 19.644 1.605 43.62 1.55 71.45 1.55zM358.362 499.218h490.8l-117.402 117.4c-19.994 19.995-19.994 52.405 0 72.4 19.999 19.995 52.408 19.995 72.402 0l204.8-204.8 3.497-3.9c16.404-20.11 15.247-49.757-3.497-68.502l-204.8-204.8c-19.994-19.994-52.403-19.994-72.402 0-19.994 19.999-19.994 52.408 0 72.402l117.402 117.402h-490.8c-28.277 0-51.2 22.922-51.2 51.198 0 28.277 22.923 51.2 51.2 51.2z" />
<glyph unicode="&#xe910;" glyph-name="message" d="M910.222 436.611c0 32.799-0.074 53.993-1.388 70.111-1.263 15.45-3.402 21.188-4.836 24-5.45 10.693-14.137 19.381-24.832 24.833-2.81 1.433-8.55 3.57-24.001 4.833-16.117 1.317-37.308 1.389-70.11 1.389h-318.555c-32.799 0-53.992-0.072-70.111-1.389-15.45-1.263-21.188-3.4-24-4.833-10.693-5.452-19.381-14.14-24.833-24.833-1.433-2.813-3.57-8.55-4.833-24-1.317-16.118-1.389-37.312-1.389-70.111v-147.888c0-32.802 0.072-53.993 1.389-70.11 1.263-15.451 3.4-21.191 4.833-24.001 5.452-10.695 14.14-19.382 24.833-24.832 2.813-1.434 8.55-3.573 24-4.836 16.118-1.314 37.312-1.388 70.111-1.388h274.836c18.523 0 34.611 0.182 50.608-2.668 13.187-2.35 26.055-6.252 38.332-11.611 14.888-6.497 28.2-15.559 43.611-25.833l36.335-24.223v337.391zM796.444 721.055c0 32.799-0.074 53.992-1.388 70.111-1.263 15.45-3.402 21.188-4.836 24-5.45 10.693-14.137 19.381-24.832 24.833-2.81 1.433-8.55 3.57-24.001 4.833-16.117 1.317-37.308 1.389-70.11 1.389h-432.333c-32.799 0-53.992-0.072-70.111-1.389-15.45-1.263-21.188-3.4-24-4.833-10.693-5.452-19.381-14.14-24.833-24.833-1.433-2.813-3.57-8.55-4.833-24-1.317-16.119-1.389-37.312-1.389-70.111v-522.331l113.944 56.997c-0.086 10.371-0.167 21.39-0.167 33.001v147.888c0 30.922-0.061 57.562 1.723 79.389 1.838 22.486 5.923 44.868 16.889 66.389 16.36 32.098 42.458 58.196 74.556 74.556 21.521 10.965 43.903 15.051 66.389 16.889 21.827 1.783 48.467 1.723 79.389 1.723h318.555c3.863 0 7.663-0.053 11.389-0.056v45.555zM910.222 665.333c6.923-2.23 13.83-4.935 20.611-8.389 32.097-16.36 58.197-42.458 74.559-74.556 10.962-21.521 15.047-43.903 16.885-66.389 1.786-21.827 1.724-48.467 1.724-79.389v-443.722c0-20.981-11.56-40.266-30.054-50.165-18.495-9.893-40.937-8.806-58.391 2.833l-124.831 83.223c-18.603 12.396-22.403 14.672-25.947 16.219-4.085 1.786-8.385 3.106-12.777 3.891-3.812 0.677-8.226 0.887-30.663 0.887h-274.836c-30.922 0-57.562-0.063-79.389 1.724-22.486 1.838-44.868 5.922-66.389 16.885-30.715 15.656-55.827 40.289-72.278 70.502l-166.111-83.109c-17.63-8.818-38.564-7.862-55.333 2.497-16.772 10.365-27 28.672-27 48.39v614.389c0 30.922-0.061 57.562 1.722 79.389 1.838 22.486 5.923 44.868 16.889 66.389 16.36 32.098 42.458 58.196 74.556 74.556 21.521 10.965 43.903 15.051 66.389 16.889 21.827 1.783 48.467 1.722 79.389 1.722h432.333c30.925 0 57.56 0.061 79.388-1.722 22.488-1.838 44.868-5.923 66.389-16.889 32.097-16.36 58.197-42.458 74.559-74.556 10.962-21.521 15.047-43.903 16.885-66.389 1.786-21.827 1.724-48.467 1.724-79.389v-55.722z" />
<glyph unicode="&#xe911;" d="M512-64c282.769 0 512 229.231 512 512s-229.231 512-512 512c-282.77 0-512-229.23-512-512s229.23-512 512-512z" />
<glyph unicode="&#xe912;" d="M231.767 453.406c149.258 65.028 248.788 107.901 298.584 128.613 142.191 59.14 171.738 69.414 190.993 69.754 4.233 0.074 13.705-0.976 19.84-5.954 9.097-7.384 9.152-23.412 8.141-34.020-7.706-80.961-41.045-277.424-58.010-368.104-7.177-38.366-21.308-51.234-34.987-52.489-29.734-2.739-52.314 19.648-81.109 38.524-45.065 29.542-70.519 47.927-114.261 76.753-50.551 33.31-17.783 51.618 11.025 81.54 7.543 7.829 138.543 126.989 141.082 137.801 0.316 1.353 0.61 6.391-2.385 9.050-2.991 2.66-7.411 1.752-10.598 1.028-4.523-1.026-76.51-48.606-215.965-142.742-20.434-14.033-38.942-20.868-55.524-20.514-18.282 0.397-53.446 10.338-79.588 18.837-32.064 10.419-57.548 15.932-55.328 33.634 1.156 9.22 13.852 18.65 38.090 28.288z" />
<glyph unicode="&#xe913;" glyph-name="notification" d="M409.56 140.8c0-56.55 45.853-102.39 102.4-102.4 56.554 0 102.399 45.844 102.399 102.4h-204.799zM767.959 622.1c-0.005 61.272-26.040 120.82-73.697 165.3-47.785 44.592-113.316 70.2-182.302 70.2-68.978-0.004-134.474-25.617-182.25-70.2-47.657-44.48-73.744-104.028-73.75-165.3 0-146.599-37.034-253.050-82.9-328.099-12.391-20.275-22.574-36.997-30.75-50.652 11.855-0.077 25.854-0.148 42.3-0.148h654.748c16.43 0 30.408 0.072 42.25 0.148-8.172 13.655-18.36 30.382-30.746 50.652-45.865 75.049-82.903 181.51-82.903 328.099zM870.359 622.1c0-128.46 32.225-216.319 67.901-274.698 19.538-31.969 34.867-57.068 45.148-75.151 5.094-8.965 9.646-17.449 13-24.852 1.669-3.676 3.548-8.136 5.002-12.948 1.152-3.82 3.594-12.728 2.647-23.552-0.579-6.646-1.971-18.755-8.95-31.196s-16.584-19.942-21.949-23.9c-7.859-5.801-15.698-8.438-19.896-9.651-4.803-1.388-9.472-2.207-13.302-2.749-7.634-1.080-16.41-1.618-25.4-1.951-18.135-0.671-43.453-0.65-75.203-0.65h-122.598c0-113.106-91.689-204.8-204.799-204.8-113.101 0.010-204.8 91.699-204.8 204.8h-122.55c-31.742 0-57.065-0.020-75.2 0.65-8.995 0.333-17.813 0.87-25.45 1.951-3.826 0.538-8.458 1.362-13.25 2.749-4.201 1.213-12.079 3.84-19.95 9.651-5.367 3.958-14.971 11.453-21.95 23.9-6.98 12.442-8.369 24.55-8.95 31.196-0.946 10.824 1.549 19.732 2.7 23.552 1.45 4.803 3.285 9.272 4.95 12.948 3.353 7.404 7.954 15.887 13.050 24.852 10.282 18.084 25.616 43.187 45.15 75.151 35.675 58.378 67.85 146.244 67.85 274.698 0.006 90.797 38.697 177.099 106.25 240.15 67.438 62.942 158.198 97.746 252.15 97.75 93.951 0 184.708-34.812 252.149-97.75 67.558-63.052 106.245-149.351 106.25-240.15z" />
<glyph unicode="&#xe914;" glyph-name="cart" horiz-adv-x="1280" d="M1152 576h-1024v-371.187c0-36.902 0.081-60.742 1.563-78.874 1.421-17.382 3.825-23.84 5.437-27.002 6.134-12.032 15.907-21.805 27.937-27.936 3.164-1.613 9.619-4.019 27-5.44 18.134-1.478 41.976-1.562 78.875-1.562h742.374c36.902 0 60.742 0.083 78.874 1.562 17.382 1.421 23.84 3.827 27.002 5.44 12.032 6.131 21.805 15.904 27.936 27.936 1.613 3.162 4.019 9.619 5.44 27.002 1.478 18.131 1.562 41.971 1.562 78.874v371.187zM268.813 832c-36.899 0-60.741-0.081-78.875-1.563-17.382-1.421-23.836-3.825-27-5.437-12.030-6.134-21.804-15.907-27.937-27.937-1.612-3.164-4.017-9.619-5.437-27-1.303-15.945-1.472-36.296-1.5-66.062h1023.873c-0.026 29.766-0.198 50.117-1.498 66.062-1.421 17.382-3.827 23.836-5.44 27-6.131 12.030-15.904 21.804-27.936 27.937-3.162 1.612-9.619 4.017-27.002 5.437-18.131 1.482-41.971 1.563-78.874 1.563h-742.374zM1280 204.813c0-34.79 0.070-64.755-1.939-89.312-2.067-25.299-6.662-50.477-18.995-74.688-18.406-36.109-47.77-65.472-83.878-83.878-24.211-12.333-49.389-16.928-74.688-18.995-24.557-2.010-54.522-1.939-89.312-1.939h-742.374c-34.787 0-64.758-0.070-89.313 1.939-25.297 2.067-50.476 6.662-74.687 18.995-36.11 18.406-65.47 47.77-83.875 83.878-12.336 24.211-16.932 49.389-19 74.688-2.006 24.557-1.938 54.522-1.938 89.312v486.374c0 34.787-0.069 64.758 1.938 89.313 2.068 25.297 6.664 50.476 19 74.687 18.405 36.11 47.765 65.47 83.875 83.875 24.211 12.336 49.391 16.932 74.687 19 24.555 2.006 54.525 1.938 89.313 1.938h742.374c34.79 0 64.755 0.069 89.312-1.938 25.299-2.068 50.477-6.664 74.688-19 36.109-18.405 65.472-47.765 83.878-83.875 12.333-24.211 16.928-49.391 18.995-74.687 2.010-24.555 1.939-54.525 1.939-89.313v-486.374z" />
<glyph unicode="&#xe915;" glyph-name="room" horiz-adv-x="975" d="M780.19 608.906c0 28.114-0.063 46.279-1.19 60.095-1.083 13.241-2.916 18.161-4.145 20.572-4.671 9.165-12.117 16.613-21.285 21.286-2.409 1.228-7.329 3.060-20.573 4.143-13.814 1.129-31.978 1.19-60.094 1.19h-39v-731.43c0-26.931-21.831-48.762-48.762-48.762h-536.381c-26.93 0-48.762 21.831-48.762 48.762 0.002 26.931 21.833 48.762 48.762 48.762h48.762v655.001c0 21.622-0.008 40.476 1.143 56.143 1.195 16.272 3.8 32.416 10.714 48.524 10.471 24.381 27.376 45.489 48.905 61 14.224 10.247 29.422 16.302 45.048 21 15.044 4.522 33.464 8.595 54.571 13.286l126.762 28.143c31.59 7.020 58.393 13.048 80.429 15.952 22.432 2.955 45.417 3.578 68.287-3.952 33.509-11.037 61.908-33.825 79.95-64.143 9.577-16.088 14.321-33.305 16.906-50.762h42.667c26.507 0 49.337 0.053 68.047-1.476 19.276-1.575 38.459-5.077 56.905-14.476 27.511-14.022 49.883-36.393 63.907-63.905 9.396-18.446 12.898-37.632 14.473-56.905 1.531-18.708 1.477-41.543 1.477-68.048v-575.382h48.762c26.931 0 48.762-21.831 48.762-48.762s-21.831-48.762-48.762-48.762h-97.524c-26.931 0-48.762 21.831-48.762 48.762v624.144zM439.334 472.382c26.929 0 48.758-21.832 48.763-48.763 0-26.931-21.833-48.762-48.763-48.762h-0.476c-26.93 0-48.762 21.831-48.762 48.762 0.002 26.931 21.833 48.763 48.762 48.763h0.476zM195.048 33.524h341.333v683.192c0 34.135-0.044 56.555-1.521 73.429-1.453 16.479-3.93 22.116-5.335 24.476-6.017 10.099-15.501 17.656-26.668 21.333-2.614 0.859-8.616 2.063-25-0.095-16.795-2.213-38.718-7.022-72.047-14.429l-126.762-28.143c-22.489-4.998-36.796-8.223-47.619-11.476-10.234-3.076-14.101-5.291-16.143-6.762-7.171-5.17-12.798-12.211-16.286-20.334-0.992-2.313-2.313-6.548-3.095-17.191-0.828-11.271-0.857-25.96-0.857-49v-655.001z" />
<glyph unicode="&#xe916;" glyph-name="order" horiz-adv-x="922" d="M563.2 500.9v49.5h-204.8v-51.2c0-28.277-22.923-51.2-51.2-51.2s-51.2 22.923-51.2 51.2v51.2h-40.95c-29.519 0-48.593-0.065-63.1-1.25-13.905-1.137-19.069-3.061-21.6-4.35-9.624-4.906-17.443-12.726-22.35-22.35-1.29-2.531-3.213-7.695-4.35-21.6-1.185-14.507-1.25-33.581-1.25-63.1v-122.849c0-58.184 0.021-98.77 2.6-130.35 2.531-30.986 7.28-48.814 14.15-62.3 14.724-28.887 38.212-52.378 67.1-67.103 13.484-6.866 31.315-11.617 62.3-14.147 31.58-2.58 72.164-2.601 130.35-2.601h163.8c58.184 0 98.77 0.020 130.35 2.601 30.986 2.529 48.819 7.281 62.3 14.147 28.887 14.725 52.378 38.216 67.103 67.103 6.866 13.486 11.617 31.314 14.147 62.3 2.58 31.58 2.601 72.166 2.601 130.35v122.849c0 29.52-0.067 48.593-1.249 63.1-1.137 13.905-3.062 19.068-4.352 21.6-4.905 9.624-12.723 17.443-22.349 22.35-2.529 1.29-7.695 3.214-21.601 4.35-14.505 1.185-33.577 1.25-63.099 1.25h-40.95v-49.5c0-28.277-22.922-51.2-51.2-51.2s-51.2 22.923-51.2 51.2zM563.2 755.2c0 56.554-45.844 102.4-102.4 102.4-56.553 0-102.4-45.846-102.4-102.4v-102.4h204.8v102.4zM665.6 652.8h40.95c27.832 0 51.804 0.055 71.45-1.55 20.239-1.654 40.381-5.331 59.75-15.2 28.887-14.724 52.378-38.212 67.103-67.1 9.866-19.368 13.542-39.513 15.196-59.75 1.608-19.644 1.551-43.62 1.551-71.45v-122.849c0-56.504 0.051-101.98-2.949-138.701-3.052-37.309-9.508-70.077-24.95-100.398-24.545-48.169-63.734-87.357-111.903-111.903-30.321-15.442-63.089-21.898-100.398-24.95-36.721-3-82.196-2.949-138.701-2.949h-163.8c-56.503 0-101.981-0.051-138.7 2.949-37.309 3.052-70.079 9.508-100.4 24.95-48.169 24.545-87.356 63.734-111.9 111.903-15.445 30.321-21.902 63.089-24.95 100.398-3 36.721-2.95 82.196-2.95 138.701v122.849c0 27.83-0.055 51.806 1.55 71.45 1.654 20.237 5.331 40.381 15.2 59.75 14.724 28.889 38.212 52.377 67.1 67.1 19.369 9.869 39.513 13.546 59.75 15.2 19.644 1.605 43.62 1.55 71.45 1.55h40.95v102.4c0 113.108 91.693 204.8 204.8 204.8 113.106 0 204.8-91.692 204.8-204.8v-102.4z" />
<glyph unicode="&#xe917;" glyph-name="users" horiz-adv-x="1138" d="M0 106.667c0 188.513 152.82 341.333 341.333 341.333 104.527 0 197.999-47.054 260.614-121.054 54.909 40.238 121.884 64.165 194.497 64.165 187.125 0 341.333-140.976 341.333-341.333v-56.889c0-31.42-25.469-56.889-56.889-56.889h-1024c-31.419 0-56.889 25.469-56.889 56.889v113.778zM853.333 618.667c0 31.419-25.469 56.889-56.889 56.889s-56.889-25.47-56.889-56.889c0-31.419 25.469-56.889 56.889-56.889s56.889 25.47 56.889 56.889zM455.111 732.444c0 62.838-50.94 113.778-113.778 113.778s-113.778-50.94-113.778-113.778c0-62.838 50.94-113.778 113.778-113.778s113.778 50.94 113.778 113.778zM113.778 49.778h455.111v56.889c0 38.070-9.42 73.916-25.944 105.444-1.067 1.775-2.032 3.59-2.889 5.444-38.92 69.598-113.313 116.668-198.722 116.668-125.676 0-227.556-101.882-227.556-227.556v-56.889zM682.667 49.778h341.333c0 134.775-100.489 227.556-227.556 227.556-50.665 0-97.872-17.937-136.169-48.998 14.433-37.803 22.391-78.802 22.391-121.668v-56.889zM967.111 618.667c0-94.256-76.407-170.667-170.667-170.667s-170.667 76.41-170.667 170.667c0 94.256 76.407 170.667 170.667 170.667s170.667-76.41 170.667-170.667zM568.889 732.444c0-125.676-101.88-227.556-227.556-227.556s-227.556 101.88-227.556 227.556c0 125.676 101.88 227.556 227.556 227.556s227.556-101.88 227.556-227.556z" />
<glyph unicode="&#xe918;" glyph-name="user" horiz-adv-x="819" d="M409.6 396.8c226.217 0 409.6-183.383 409.6-409.6 0-28.278-22.922-51.2-51.2-51.2h-716.8c-28.277 0-51.2 22.922-51.2 51.2 0 226.217 183.384 409.6 409.6 409.6zM409.6 294.4c-152.211 0-278.468-110.715-302.85-256h605.698c-24.381 145.285-150.636 256-302.848 256zM563.2 704c0 84.831-68.769 153.6-153.6 153.6s-153.6-68.769-153.6-153.6c0-84.831 68.769-153.6 153.6-153.6s153.6 68.769 153.6 153.6zM665.6 704c0-141.385-114.616-256-256-256s-256 114.615-256 256 114.615 256 256 256c141.384 0 256-114.615 256-256z" />
<glyph unicode="&#xe919;" d="M712.801 648.837c16.666-16.662 16.666-43.677 0-60.34l-323.658-323.66c-49.987-49.987-131.032-49.987-181.019 0l-110.327 110.326c-16.662 16.666-16.662 43.679 0 60.339 16.663 16.664 43.678 16.664 60.34 0l110.327-110.326c16.662-16.66 43.677-16.66 60.34 0l323.659 323.66c16.666 16.663 43.679 16.663 60.339 0z" />
<glyph unicode="&#xe91a;" d="M926.136 650.97c16.66-16.663 16.66-43.677 0-60.34l-325.796-325.793c-49.987-49.987-131.030-49.987-181.017 0l-110.327 110.326c-16.662 16.666-16.662 43.679 0 60.339 16.663 16.664 43.678 16.664 60.34 0l110.327-110.326c16.662-16.66 43.677-16.66 60.338 0l325.796 325.793c16.66 16.663 43.679 16.663 60.339 0z" />
<glyph unicode="&#xe91b;" glyph-name="file" d="M932.958 328.363v392.706c0 32.423-0.004 54.699-1.417 71.959-1.378 16.849-3.913 25.905-7.249 32.458-7.637 14.986-19.849 27.156-34.833 34.792-6.554 3.338-15.603 5.873-32.461 7.25-17.259 1.41-39.535 1.458-71.957 1.458h-546.124c-32.422 0-54.699-0.048-71.958-1.458-16.854-1.378-25.905-3.911-32.459-7.25-14.983-7.635-27.156-19.808-34.792-34.792-3.339-6.554-5.872-15.604-7.25-32.458-1.41-17.26-1.458-39.536-1.458-71.959v-546.123c0-32.427 0.048-54.699 1.458-71.962 1.377-16.853 3.912-25.903 7.25-32.457 7.636-14.989 19.806-27.2 34.792-34.833 6.554-3.337 15.61-5.875 32.459-7.249 17.26-1.412 39.536-1.417 71.958-1.417h392.708c6.558 0 12.113 0.166 16.875 0.205v159.087c0 15.356 0.004 28.928 0.917 40.124 0.947 11.597 3.081 23.633 9.041 35.332 8.725 17.114 22.635 31.027 39.753 39.748 11.695 5.961 23.735 8.098 35.332 9.045 11.196 0.913 24.764 0.913 40.124 0.913h159.125c0.038 4.762 0.166 10.317 0.166 16.879zM477.833 334.234v79.629h-79.624c-18.847 0-34.118 15.279-34.125 34.125 0 18.85 15.274 34.163 34.125 34.163h79.624v79.627c0 18.851 15.317 34.125 34.167 34.125 18.846-0.008 34.125-15.278 34.125-34.125v-79.627h79.625c18.85 0 34.167-15.313 34.167-34.163-0.009-18.846-15.322-34.125-34.167-34.125h-79.625v-79.629c0-18.846-15.279-34.159-34.125-34.163-18.85 0-34.167 15.313-34.167 34.163zM716.791 51.362c4.77 4.518 10.953 10.534 19.418 18.999l153.417 153.417c8.465 8.465 14.477 14.647 18.999 19.418h-134.959c-16.486 0-26.812-0.034-34.581-0.67-7.347-0.597-9.395-1.545-9.877-1.792-4.279-2.18-7.774-5.675-9.958-9.958-0.243-0.478-1.19-2.526-1.792-9.873-0.636-7.774-0.666-18.095-0.666-34.581v-134.959zM1001.25 328.363c0-23.258 0.098-40.572-2.876-56.708-0.141-0.845-0.299-1.681-0.499-2.5-0.247-1.199-0.465-2.398-0.751-3.584-3.622-15.095-9.596-29.559-17.707-42.795-9.638-15.714-22.98-28.77-41.502-47.292l-153.417-153.417c-18.522-18.517-31.573-31.859-47.292-41.498-13.235-8.111-27.699-14.084-42.79-17.711-1.186-0.282-2.389-0.499-3.584-0.747-0.823-0.205-1.655-0.358-2.5-0.499-16.141-2.974-33.451-2.876-56.708-2.876h-392.708c-31.293 0-56.817-0.026-77.5 1.664-21.082 1.724-40.135 5.402-57.917 14.46-27.831 14.182-50.444 36.834-64.625 64.666-9.059 17.783-12.736 36.834-14.458 57.916-1.688 20.685-1.667 46.212-1.667 77.504v546.123c0 31.294-0.023 56.817 1.667 77.5 1.723 21.084 5.397 40.134 14.458 57.917 14.18 27.826 36.799 50.445 64.625 64.625 17.783 9.061 36.833 12.736 57.917 14.458 20.684 1.69 46.206 1.667 77.5 1.667h546.124c31.287 0 56.819 0.022 77.5-1.667 21.082-1.722 40.137-5.399 57.916-14.458 27.831-14.181 50.487-36.794 64.67-64.625 9.058-17.782 12.736-36.835 14.455-57.917 1.69-20.683 1.668-46.207 1.668-77.5v-392.706z" />
<glyph unicode="&#xe91c;" glyph-name="Icon-Stroke-13" horiz-adv-x="1280" d="M665.833 919.915c24.995 24.98 65.511 24.989 90.5 0l426.668-426.667c11.989-12.001 18.748-28.283 18.748-45.25s-6.758-33.249-18.748-45.251l-426.668-426.668c-24.989-24.986-65.505-24.977-90.5 0-24.993 24.994-24.993 65.51 0 90.505l317.42 317.414h-841.086c-35.347 0-64 28.653-64 64s28.654 64 64 64h841.086l-317.42 317.416c-24.993 24.994-24.993 65.507 0 90.5z" />
</font>
</defs>
</svg>
